&title=Oshama Scramble! [DX]
&wholebpm=190
&artist=t+pazolite
&des=Jack
&shortid=10363
&genre=maimai
&cabinet=DX
&version=maimai DX
&chartconverter=Neskol
&lv_2=4
&des_2=-
&lv_3=8+
&des_3=-
&lv_4=11
&des_4=はっぴー
&lv_5=13+
&des_5=Jack
&des_6=
&inote_2=
(190){1},
{1},
{1},
{1},
{1},
{1}4,
{1}4,
{2}5,5,
{1}4/5,
{2}5,5,
{1}5,
{2}6,6,
{1}6,
{2}7,7,
{1}7,
{2}8,8,
{2}1,1b,
{1}8-5[4:3],
{1},
{1}1-4[4:3],
{1},
{1}8-5[4:3],
{1},
{1}1-4[4:3],
{1},
{2}8,8,
{2}7,7,
{2}6,6,
{4}5x,5x,5x,,
{2}4,4,
{2}3,3,
{2}2,2,
{4}1,1,1,,
{1}1b/8b,
{1}B1/B8,
{1}B4/B5,
{1}B1/B8,
{1}B4/B5,
{1}B1/B8,
{1}B4/B5,
{1}B1/B8,
{1}C1f,
{1}B2/B3,
{1}B6/B7,
{1}B2/B3,
{1}B6/B7,
{1}B2/B3,
{1}B6/B7,
{1}C1xh[1:1],
{1},
{2}8,8,
{1}8,
{2}7,7,
{1}7,
{2}6,6,
{1}6,
{1}4h[1:1]/5h[1:1],
{1},
{1}4-1[4:3]/5-8[4:3],
{1},
{1}3-8[4:3]/4-7[4:3],
{1},
{1}5-2[4:3]/6-1[4:3],
{1},
{1}4-1[4:3]/5-8[4:3],
{1},
{2}1,1,
{2}2,2,
{2}3,3,
{1}4/5,
{1}B4/B5,
{1}B3/B6,
{1}B2/B7,
{1}B1/B8,
{1}C1hf[1:1],
{1},
{4}8,8,8,,
{4}8,8,8,,
{4}7,7,7,,
{4}7x,7x,7b,,
{4}6,6,6,,
{4}6,6,6,,
{4}5,5,4,4,
{1}5h[2:1],
{4}4,4,4,,
{4}4,4,4,,
{4}3,3,3,,
{4}3x,3x,3b,,
{4}2,2,2,,
{4}2,2,2,,
{4}1,1,1,,
{4}1x,1x,8x,8x,
{1}1xh[4:15]/8xh[4:15],
{1},
{1},
{1},
{1},
{1},
E
&inote_3=
(190){1},
{4}2,2,3,3,
{4}4,4,5,,
{4}7,7,6,6,
{4}5,5,4/5,,
{2}2h[2:1],3h[2:1],
{2}4h[2:1],5,
{2}5h[4:1]/6h[4:1],3h[4:1]/4h[4:1],
{4}2h[2:1]/7h[2:1],,,1b/8b,
{4}2,3,4/5,4/5,
{4}6,6,5/7,,
{4}7,6,4/5,4/5,
{4}3,3,2/4,,
{4}1,2,3/4,3/4,
{4}5,4,3/6,,
{4}3,4,6,5,
{4}4/5,4/5,3x/6x,,
{2}B3,B4,
{2}B5,B6,
{2}B7,B8,
{1}C1,
{2}E7,E6,
{2}E5,E4,
{2}E3,E2,
{1}C1xh[2:1],
{4}E2,B1,B8,,
{4}B6,B7,E8,,
{4}E4,B4,B5,,
{2}B3/B6,E2/E8,
{4}B2,C1,B6,,
{4}B7,C1,B3,,
{4}E3,C1,E7,,
{1}C1hf[1:1],
{4},,1x,1b/8b,
{4}2/7,2/7,3/4,3/4,
{4}2/5,2/5,3/6,3/6,
{4}4/7,4/7,5/6,5/6,
{4}4/5,3/6,2x/7x,,
{4}1/2,1/2,3/4,3/4,
{4}5/6,5/6,7/8,7/8,
{4}6,5,3,4,
{4}4h[4:1]/5h[4:1],,2x/7x,2b/7b,
{4}4/6,4/6,2/8,2/8,
{4}1/7,1/7,3/5,3/5,
{4}4/7,4/7,2/5,2/5,
{4}1/8,2/7,3x/6x,,
{4}3/4,3/4,5/7,5/7,
{4}1/8,1/8,2/4,2/4,
{2}3h[4:1]/5h[4:1],4h[4:1]/6h[4:1],
{4}5,3/6,2x/7x,,
{2}5h[2:1],4h[2:1],
{2}6h[2:1],5,
{2}4h[2:1],5h[2:1],
{2}3h[2:1],4,
{1}5h[2:1]/6h[2:1],
{1}3h[2:1]/4h[2:1],
{1}4h[2:1]/5h[2:1],
{2}4x/5x,2x/7x,
{1}1-5[2:1],
{4}6,6,5/6,,
{1}7-4[2:1],
{4}3,3,2x/5x,,
{1}6-8[8:3],
{1}1-5[2:1],
{1}6-3[2:1],
{4}2,2,1,1b,
{1}8<5[2:1],
{1}4>1[2:1],
{1}8-4[2:1],
{4}2,2,3,3,
{4}4/6,4/6,3/5,3/5,
{4}2/6,2/6,3/7,3/7,
{4}6,5,3/4,3/4,
{4}2,3,4/5,4/5<3[4:5],
{1},
{4},,,2b/7b,
{4}3,2/4,7,6/8,
{8}1/2,,3/8,,4/7,,6,6,
{8}6,,4,4,4,,7,7,
{4}7,7/8,1b/6b,,
{4}2/4,3,5/7,6,
{8}5,5,5,,4/6,,3,3,
{8}3,,4/5,,5/6,,7,7x,
{8},7x/8x,,1x/2x,,3x/8x,,,
{4}2,1/3,6,5/7,
{8}3/4,,2/5,,1/6,,7,7,
{8}7,,1,1,1,,8,8,
{4}8,1/7,2b/6b,,
{8}4,4,4,,7,7,7,,
{4}5/6,3/4,2b/7b,2/7,
{8}6,6,5,,3,3,4,,
{8}4/5,4/5,4/5,,3/6,,2/7,,
{1}1b>7[2:7]/8b,
{1},
{1},
{1},
{1},
{1},
E
&inote_4=
(190){1},
{4}C1,B2,B1,B8,
{4}B7,B6,B5,B4,
{4}C1,B7,B8,B1,
{4}B2,B3,B4,B5,
{4}E7,E8,E1,E2,
{4}E3,E4,E5,B3/B6,
{2}7-3[4:1],2-6[4:1],
{4}8h[4:1],1,3/6,E4/B4/B5/E6,
{4}7x-5[8:1],8x-4[8:1],7x-5[8:1],8x-4[8:1],
{8}7x-5[8:1],,1x,1,8,8,3/6,,
{4}2x-4[8:1],1x-5[8:1],2x-4[8:1],1x-5[8:1],
{8}2x-4[8:1],,8x,8,1,1,3/6,,
{4}7x-5[8:1],8x-4[8:1],7x-5[8:1],8x-4[8:1],
{8}7x-5[8:1],,1x,1,8,8,3/6,,
{4}2x-4[8:1],7x-5[8:1],1x-4[8:1],8x<2[2:1],
{8}1x,1x,1x,1x,1x,,2b/7b,,
{1}3h[2:1]/6h[2:3],
{1}5h[2:3],
{1}4h[2:3],
{1}3h[2:3],
{1}4h[2:3],
{1}5h[2:3],
{1}6h[2:3],
{4}3h[2:1],,,5,
{4}6h[4:7],5,5,5,
{4}E4,B2,E1,4,
{4}3h[4:7],4,4,4,
{4}E6,B7,E1,5x,
{4}6h[4:7],5,5,5,
{4}E4,B2,E1,4x,
{4}3h[1:1],4,4,4,
{4}E5,C1,E1,1x/8x,
{4}C1f/B3/B6,,1x/8x,3x/6x,
{4}B1/E2/B8/E8,B4/E4/B5/E6,1/8,3/6,
{4}B1/E2/B8/E8,E4/B4/B5/E6,3h[8:1]/6h[8:1],3h[8:1]/6h[8:1],
{4}B1/E2/B8/E8,B4/E4/B5/E6,1/8,3/6,
{8}1/8,,6,6,4,5,3,,
{4}B1/E2/E8/B8,E4/B4/B5/E6,1/8,3/6,
{4}B1/E2/E8/B8,B4/E4/B5/E6,2h[8:1]/7h[8:1],2h[8:1]/7h[8:1],
{4}B1/E2/E8/B8,E4/B4/B5/E6,1/8,3/6,
{1}C1hf[2:1]/B2/B7,
{4}E1/E7/B7/B8,B3/E3/B4/E5,7/8,2/5,
{4}E1/B7/E7/B8,B3/E3/B4/E5,2h[8:1]/6h[8:1],3h[8:1]/7h[8:1],
{4}E1/B1/B2/E3,B5/E5/B6/E7,1/2,4/7,
{4}B1/E1/B2/E3,E5/B5/B6/E7,3h[8:1]/7h[8:1],2h[8:1]/6h[8:1],
{4}E1/B7/E7/B8,B3/E3/B4/E5,7/8,2/5,
{4}E1/B7/E7/B8,E3/B3/B4/E5,2h[8:1]/6h[8:1],3h[8:1]/7h[8:1],
{8}8x,7x,6x,5x,4x,3x,2x,1xp8[8:5],
{1},
{2}3h[1:2],5>6[4:3],
{1},
{2}6h[1:2],5>2[2:1],
{4},,2x,2x,
{2}3h[1:2],5>7[4:3],
{1},
{4}8h[2:1],,1,1>4[4:1]/8<5[4:1],
{4},,1x,1x,
{1}C1xh[4:3]/B4/B5/B6/B7,
{4}1x,,1/8,1/8,
{1}C1xh[4:3]/B2/B3/B4/B5,
{8}8x,8x,8x,8x,8x,,1/8,,
{4}B1/C1xh[2:1]/B2/B3/B4,,,8x,
{4}C1xh[2:1]/B5/B6/B7/B8,,,1x,
{4}8-4[8:1],1,1-5[8:1],8,
{4}6h[4:1],8h[4:1],1h[4:1],3h[4:1],
{1}5<4[4:13],
{1}E1/C1,
{1}C1/E5,
{1}C1/E1,
{4}1/2,3/4,5/6,7/8,
{4}1/2,3/4,5/6,7/8,
{8}1x,2x,3x,4x,5x,6x,7x,8x,
{16}1,8,1,8,1,8,1,8,1,8,1,8,1b,,,,
{1}C1hf[1:1]/B2/B3/B6/B7,
{4},,4/5,2x/7x,
{4}6-8[8:1],5-1[8:1],6-8[8:1],5-1[8:1],
{4}6<3[4:1],4,,2/7,
{4}B1/E2/B8/E8,E4/B4/B5/E6,1/8,3/6,
{8}2-6[8:1],2,7-3[8:1],7,1h[4:1],,8b,,
{4}1-7[8:1],4-6[8:1],1-7[8:1],4-6[8:1],
{8}1-7[8:1],,4,,1h[4:1],,8,8,
{8}7,8,1,2h[4:1],,1,8,2x/7x,
{8},E4/E5/E6,,E1/E2/E8,,C1f/E3/E7,,,
{4}3-1[8:1],4-8[8:1],3-1[8:1],4-8[8:1],
{4}3>6[4:1],4,,2/7,
{4}B1/E2/B8/E8,E4/B4/B5/E6,1/8,3/6,
{8}7-3[8:1],7,2-6[8:1],2,8h[4:1],,1b,,
{4}8-2[8:1],5-3[8:1],8-2[8:1],5-3[8:1],
{8}8,,7h[4:1],,1x,,4,4,
{8}3,4,5,6h[4:1],,5,4,3,
{4}2x/5x,4x/7x,8h[4:1],1>8[4:15],
{1}C1xh[4:15],
{1},
{1},
{1},
{1},
{1},
E
&inote_5=
(190){1},
{16}1,,,2,2,,3,,,,4,,,,5,,
{8},E2,E8,E3,E7,E4,E6,C1,
{16}8,,,7,7,,6,,,,5,,,,4,,
{8},E8,E2,E7,E3,E6,E4,C1,
{16}1,,1,,2,,2,,3,4,3,,2/5,,1,,
{16}8,,8,,7,,7,,6,5,6,,4/7,,8,,
{16}4,5,4,5,3,6,3,6,2,7,2,7,1,8,1,8,
{4}2x-4[8:1]/7x,8x-6[8:1],1x-5[8:1],8b,
{16}6h[16:3],,,5,6,,4/7,,6,,2/5,,3,,4/7,,
{16}6,5,6,5,6,,4,,3/5,,2,,1/7,,8,,
{16}3h[16:3],,,4,3,,2/5,,3,,4/7,,6,,2/5,,
{16}3,4,3,4,3,,5,,4/6,,7,,2/8,,1,,
{16}6h[16:3],,,5,6,,4/7,,6,,2/5,,3,,4/7,,
{16}6,5,6,5,6,,4,,4/5,,3/6,,2/7,,1/8,,
{16}7h[16:3],,,8,7,,1/6,,2h[16:3],,,1,2,,3/8,,
{32}1,,8,,1,,8,,1,,8,,1,,8,,1x,2x,3x,4x,5x,6x,7x,8x,1b,,,,,,,,
{8}6h[8:7],,,5,,5,,5>2[8:3],
{4},,B7/B8,B4/B5,
{8}3h[8:7],,,4,,4,,4<7[8:3],
{4},,B1/B2,B4/B5,
{8}7h[8:7],,,8,,8,,8>3[8:3],
{4},,B6/B7,B3/B4,
{8}2h[8:7],,,1,,1,,1<6[8:3],
{4},,B2/B3,B5/B6,
{16}1x/8x,,3,4,3,,6,5,6,,2,4,3,,7,5,
{16}6,,1,4,3,,8,5,6,,1,8,1,,2x/7x,,
{4}2x/7x>2[8:1],3b,3x<6[8:1]/6x,7b,
{8}1/8,1x/8x<5[8:1],,1x>4[8:1],,8x<5[8:1],,1x,
{8}2x,3,4,5<8[8:1],,4x>1[8:1],,5x,
{16}6x,,7,,8,,1,,2x/4x,,,5x/7x,,,4x/5x,,
{8}4x/5x,6,7,4x/8x,4x/8x,3,2,1x/5x,
{8}1x/5x,4/6,3x/7x,2/8,1b-5[8:1],,5bw1[8:1],,
{96},,,C1f,,,,,,,,,,,,,,,,,,,,,,,,,,,,,,,,,,,,,,,,,,,,,1>4[8:1]/8<5[8:1],,,,,,,,,,,,,,,,,,,,,,,,,,E2/E8,,E3/E7,,E4/E6,,,,,,,,,,,,,,,,,,
{24}1b,2x,3x,4x,,,8b,7x,6x,5x,,,1b,2x,3x,4x,,,8b,7x,6x,5x,,,
{24}1b,2x,3x,4x,,,8b,7x,6x,5x,,,2,,,1/3,,,4/8,,,5/7,,,
{4}6b-2[8:1],3b-5[8:1],7b-1[8:1],2b-6[8:1],
{8}8b,,4/7,4/7,3,2/5,6,4/7,
{24}8b,7x,6x,5x,,,1b,2x,3x,4x,,,8b,7x,6x,5x,,,1b,2x,3x,4x,,,
{24}8b,7x,6x,5x,,,1b,2x,3x,4x,,,7,,,6/8,,,1/5,,,2/4,,,
{4}3x>8[8:1],5x<8[8:1],4xw8[8:1],,
{48}2b/6b,,,,,,,,,,,,3/4,,,,,,5/6,,,,,,1>4[8:1]/8<5[8:1],,,,,,,,,,,,,E2/E8,E3/E7,E4/E6,,,,,,,,,
{24}8b,7x,6x,5x,,,2b,3x,4x,5x,,,8b,7x,6x,5x,,,1b,2x,3x,4x,,,
{24}7b,6x,5x,4x,,,1b,2x,3x,4x,,,7,,,6/8,,,1/5,,,2/4,,,
{4}3b-7[8:1],6b-4[8:1],2b-8[8:1],7b-3[8:1],
{8}1b,,2/5,2/5,6,4/7,3,2/5,
{24}1b,2x,3x,4x,,,7b,6x,5x,4x,,,1b,2x,3x,4x,,,8b,7x,6x,5x,,,
{24}2b,3x,4x,5x,,,8b,7x,6x,5x,,,2,,,1/3,,,7,,,6/8,,,
{32}4,,5,,4,,5,,4,,5,,4,,5,,4x,3x,2x,1x,8x,7x,6x,5x,4x,3x,2x,1x,8x,7x,6x,5x,
{1}4b>5[2:1]*q5[2:1],
{4}2b/7b,E2,C1,E6,
{4}7qq4[8:5],,2b,3b,
{4}2,E8,C1,E4,
{4}2pp5[8:5],,7b,6b,
{4}7,E5,C1,E1,
{2}2h[4:1]/7h[4:1],3h[4:1]/6h[4:1],
{16}4/5,,3/6,,2/7,,1/8,,2,7,2,7,3,6,3,6,
{8}4xh[4:1]/5xh[4:1],,,,E3,E7,C1,,
{8}1b/8b,,4/7,4/7,,E1/B1/B2/E3,,4/7,
{16}4/7,,6,5,6,,4/7,,4b-1[8:1]/7b,,,,5b,,,,
{8}4b/8b,,2/5,2/5,,E1/E7/B7/B8,,2/5,
{16}2/5,,3,4,3,4,3,4,3,,2/5,,1x,1x,1x,1x,
{16}1b,,7,8,7,,1/6,,,,B3/E3/B4/E5,,,,1/6,,
{16}1/6,,7,8,7,,1/6,,2,1,2,,3/8,,5/6,,
{16}3/8,,2,1,2,,3/8,,,,B5/E5/B6/E7,,,,3/8,,
{24}1/6,,,1/6,,,3/8,,,3/8,,,2x-6[8:1]/7x-3[8:1],,,2x/7x,,,,C1f,,,,,
{8}1b/8b,,5/7,5-2[8:1]/7,,7-4[8:1],,3,
{8}3b,,2/4,2/4-7[8:1],,2-5[8:1],,6,
{16}6xh[16:3],,,5,6,,4/7,,8h[16:3],,,1,8,,2/7,,
{16}3xh[16:3]/6b,,,4,3,,2/5,,3b/6xh[16:3],,,5,6,,4/7,,
{16}8b,,3,4,3,,2/5,,1b,,6,5,6,,4/7,,
{16}8b,,3,4,3,,2/5,,1b,,6,5,6,,4/7,,
{8}3x/5x,3/5,4x/7x,4/7,2x/6x,2/6,4x/8x,4/8,
{32}1x,2x,3x,4x,5x,6x,7x,8x,1x,2x,3x,4x,5x,6x,7x,8x,1x,2x,3x,4x,5x,6x,7x,8x,1x,2x,3x,4x,5x,6x,7x,8x,
{1}C1hf[1:1]/1x,
{4},,,2b/7b,
{16}1/8,,2,1,2,,7,8,7,,3,4,2,,6,5,
{16}7,,4,5,4,,1x/8x,2x/7x,3b/6b,,,,5/6,,3/4,,
{16}1/2,,7,8,7,,5/6,,3/4,,2,1,2,,3/4,,
{16}5/6,,7,8,7-3[8:1],,1,,1-5[8:1],,,,8b,,,,
{16}2/7,,6,5,7,,3,4,2,,6,5,8,,3,4,
{8}1,5/6,7/8,1/2,3b/8b<5[8:1],,1,2,
{16}3/4,,2/5,,1/6,,7b/8b,,,,2,1,2,,3b>8[8:1]/8b,,
{48},,,,,,5b<8[8:1],,,,,,,,,,,,4bw8[8:1],,,,,,,,,,,,,B4,C1f,B8,,,,,,,,,,,,,,,
{16}2b/6b,,7,8,7,,2,1,2,,6,5,7,,3,4,
{16}2,,5,4,5,,1x/8x,2x/7x,3b/6b,,,,3/4,,5/6,,
{16}7/8,,2,1,2,,3/4,,5/6,,7,8,7,,5/6,,
{16}3/4,,2,1,2-6[8:1],,8,,8-4[8:1],,,,1b,,,,
{16}3/5,,2,1,2,,3/8,,4/6,,7,8,7,,1/6,,
{48}3b/5b,,,,,,4b/6b,,,,,,2b/5b,,,,,,4b/7b,,,,,,1b>4[8:1]/8b<5[8:1],,,,,,,,,,,,,E2/E8,E3/E7,E4/E6,,,,,,,,,
{16}4x,5x,4,5,3x,6x,3,6,2x,7x,2,7,1x,8x,1,8,
{96}1b,,,,2x,,,,3x,,,,4x,,,,,,,,,,,,8b,,,,7x,,,,6x,,,,5x,,,,,,,,,,,,1b,,,2x,,,3x,,,4x,,,5x,,,6x,,,7x,,,8x,,,1x,,,2x,,,3x,,,4x,,,5x,,,6x,,,7x,,,8x,,,
{1}C1xh[4:15]/1b,
{1},
{1},
{4},,,1b,
{1},
{1},
{1},
E
